#TITLE:COZMIC TRAVEL;
#SUBTITLE:;
#ARTIST:Soul'd Out;
#TITLETRANSLIT:;
#SUBTITLETRANSLIT:;
#ARTISTTRANSLIT:;
#CREDIT:Stepped by RazorBeamz;
#BANNER:COZMIC TRAVEL-banner.png;
#BACKGROUND:COZMIC TRAVEL-BG.png;
#LYRICSPATH:;
#CDTITLE:;
#MUSIC:COZMIC TRAVEL.mp3.mp3;
#OFFSET:0.000;
#SAMPLESTART:100.000;
#SAMPLELENGTH:12.000;
#SELECTABLE:YES;
#BPMS:0.000=117.010;
#STOPS:;
#BGCHANGES:;
// cache tags:
#FIRSTBEAT:1.000;
#LASTBEAT:594.000;
#SONGFILENAME:Songs/Music V.I.P ^_^/COZMIC TRAVEL/COZMIC TRAVEL.sm;
#HASMUSIC:1;
#HASBANNER:1;
#MUSICLENGTH:309.810;
// end cache tags

//---------------dance-single - Blank----------------
#NOTES:
     dance-single:
     Blank:
     Beginner:
     1:
     0.000,0.000,0.000,0.000,0.000,0.000,0.000,0.000,0.000,0.000:
0000
0000
0000
0000
;

//---------------dance-single - ----------------
#NOTES:
     dance-single:
     :
     Easy:
     1:
     0.420,0.527,0.232,0.407,0.000,712.000,72.000,126.000,0.000,13.000:
0000
1000
0000
0000
,
0001
0001
1000
0000
0000
0000
0000
0000
,
0001
0001
1000
0000
0000
0000
0000
0000
,
0001
0001
1000
0000
0000
1001
0000
0000
,
1001
0000
0200
0000
0320
0030
0000
0000
,
0000
0020
0230
2300
,
3020
0230
0300
0000
,
0020
0230
2300
3002
,
0203
0320
0030
0020
,
0230
2300
3002
0203
,
0320
0230
0000
0000
0000
0300
0020
0000
,
0032
0000
1003
1000
0100
0100
0010
0010
,
0001
0000
1000
0002
0003
2000
0000
3000
,
0000
0000
0001
2000
3000
0002
0000
0003
,
0000
0000
1000
0002
0003
2000
0000
3000
,
0000
0000
0001
2000
3000
0002
0000
0003
,
0000
2000
0000
3000
,
0000
0002
0000
0003
,
0000
1001
0000
0000
1000
0000
0001
0000
,
1000
0001
0000
0000
1000
0001
0000
0000
,
1000
0001
0000
0100
0010
0001
0000
0001
,
0010
0100
0000
2000
0000
3000
0002
0000
,
0003
0000
0100
0010
0000
0100
0100
0020
,
0030
0100
0010
0000
0200
0300
0010
0000
,
0010
0200
0300
0000
0000
0000
1000
0100
,
0010
0000
0020
0030
0200
0300
0000
2000
,
0000
3100
0000
0100
0000
0010
0100
0000
,
0010
0100
0000
0010
0100
0000
0000
0000
,
0010
0100
0000
0100
0010
0100
0000
1000
,
0001
1000
0000
0010
0100
0000
0000
0100
,
0000
1000
0001
0000
0100
0000
0010
0000
,
0200
2302
0000
0000
,
3003
0100
0100
0010
,
0010
0000
1000
0000
1000
0000
0001
0001
,
1000
1000
0000
0000
1001
0000
0100
0000
,
0100
0000
0100
0000
0100
0000
1000
0010
,
0010
0100
0100
0000
1000
0000
1000
0000
,
0001
0000
0001
0000
0100
0000
0100
0001
,
0001
2002
0000
0000
,
3203
0000
0320
0000
0000
0000
0000
0030
,
0000
0000
0010
0000
0010
0010
0000
0010
,
0010
0000
0100
0100
0100
0010
0100
0000
,
2000
0000
0000
0000
0000
0000
3010
0100
,
0100
0010
0000
0002
0000
0000
0000
0000
,
0000
0000
0003
0010
0100
0010
0010
0010
,
1001
0000
0100
0100
0100
0010
0100
0000
,
1000
0001
1000
0100
0000
0100
0100
0100
,
0010
0010
1000
0000
1000
0000
1000
0000
,
0010
0100
0100
0000
0000
0000
1000
0001
,
0001
0000
0100
0100
0100
0010
0100
0000
,
1000
0001
1000
1000
0001
0000
0100
0100
,
0100
0010
0100
0000
0100
0000
0100
0000
,
0100
0000
1000
2002
0000
0000
0000
0000
,
3003
0000
1000
1000
1000
0001
1000
0000
,
0100
0100
0010
0010
,
1000
0000
0001
0001
0001
1000
0001
0000
,
0100
0100
1000
0001
,
1001
0000
2000
0000
3002
2003
0000
0000
,
3000
1000
0100
0010
,
0010
0100
0100
0001
,
1000
0001
1000
0100
,
0010
0000
0100
0000
0010
0000
0100
0010
,
0100
0100
0100
1000
,
0001
0100
0100
0001
,
1000
1001
1001
0100
,
0100
0010
0100
0000
0100
0010
0100
0100
,
0010
0100
1001
0000
0100
0010
0000
0100
,
0100
0100
0001
1000
0100
0100
0010
0100
,
0100
0020
0030
0100
0100
1000
0001
1000
,
0100
0100
0010
0100
0100
1000
1000
1000
,
0100
0010
0100
1000
0001
0100
0100
0100
,
0010
0100
0100
0000
0010
0100
0100
0100
,
1001
1001
2002
0000
0000
0000
3223
0000
,
0000
0000
0000
0330
2002
0000
0000
0000
,
3003
0000
0100
0100
0100
0010
0010
0100
,
0010
0000
0100
0100
0100
0010
0100
0000
,
2002
0000
0000
3103
0100
0000
0010
0010
,
0100
0010
2002
0000
0000
0000
0000
0000
,
3003
0000
0000
2000
3000
0100
0100
0010
,
0010
0010
1001
1001
1001
0110
1001
0000
,
0000
0100
0100
0010
1000
1000
0001
0001
,
0100
0100
0010
0010
1001
1001
1001
1001
,
1001
0000
0100
0000
0000
0010
0100
0010
,
0010
0000
0100
0100
0100
0010
0100
0000
,
0001
0001
1000
1000
0001
0001
1000
1000
,
0001
0010
0100
0100
0100
0010
0100
0000
,
0001
1000
0100
0010
0100
0010
0010
0100
,
0010
0000
1000
1000
1000
0001
1000
0000
,
0010
0010
0100
0100
0100
0010
0100
0100
,
0010
0000
0001
0001
0001
1000
0001
0001
,
0001
0001
1000
1000
0000
0010
0100
0010
,
0100
0000
0200
0300
0200
0300
0002
0003
,
2000
3000
0020
0230
0302
2003
3000
0000
,
0000
0200
0310
0010
0010
1001
2002
3003
,
0000
0100
0010
0100
0010
0000
0020
0130
,
0100
1001
0000
2002
3003
0100
0010
0100
,
0100
0100
0010
0100
0000
0010
0100
0000
,
1000
0000
1001
1001
0000
0010
0010
0020
,
0030
0100
0010
0000
0100
0010
0010
1000
,
0100
0010
0000
0000
0010
0000
0010
0010
,
1000
1000
1000
1000
,
1000
0001
0001
0001
,
0001
0001
0001
0010
,
0100
0010
0100
0010
,
0100
0010
0010
0010
,
0100
1000
0001
1000
,
0001
0100
0010
0100
,
0010
2002
0000
3223
,
0000
0330
0010
0100
,
0100
0020
0030
0200
,
0300
1000
0100
0010
,
0001
1001
0100
0010
,
0100
0010
1001
0110
,
1001
0110
0001
0010
,
0100
1000
0100
0100
,
0010
0000
1000
0001
1000
0001
0100
0100
,
0100
0010
0100
0000
2002
0000
0000
0000
,
3103
0010
0100
1000
,
1000
0000
0001
0000
0001
0000
0100
0200
,
0000
0301
0000
0000
0000
0000
1000
1000
,
1000
0010
1000
0000
0100
0000
0100
0000
,
0010
0010
1001
1001
,
0100
0100
0010
0010
,
2002
0000
3003
1001
0000
0000
0001
0001
,
0001
0010
0001
0000
0100
0000
0100
0000
,
0010
0000
0010
0000
0100
0000
1000
1000
,
1000
0010
1000
0000
0100
0000
0100
0000
,
0001
1000
0020
0230
,
0320
0230
0320
0230
,
0320
0230
0320
0230
,
0320
2032
3223
2332
,
3003
0000
0010
0100
0010
0000
1000
0001
,
0001
1000
1000
0001
0001
1000
1000
0001
,
0001
1000
1000
0001
0001
1000
0010
0010
,
0010
0100
0010
0010
0010
0100
0010
0010
,
0010
0100
0010
0010
1001
0010
0010
0010
,
0100
0010
0010
0010
0100
0010
0010
0010
,
0100
0010
0010
0010
0100
0010
0010
0010
,
0100
0010
0010
0010
0100
0010
0010
0010
,
0100
0010
0010
0010
0100
0000
0100
0100
,
0100
0010
0100
2002
0000
0000
3223
0000
,
0000
0330
1001
1001
1001
1001
0010
0010
,
0010
0100
0010
0000
0220
0000
0000
2332
,
0000
0000
3003
1001
1001
1001
0100
0100
,
0100
0010
0100
0000
2002
0000
0000
3223
,
0000
0000
0330
1001
1001
1001
1000
1000
,
1000
0001
1000
0000
0220
0000
0000
2332
,
0000
0000
3003
1001
1001
1001
0010
0100
,
0010
0020
0030
0000
;
